Параметры кодирования видео для мобильных устройств

Делимся опытом. Задаем вопросы и отвечаем на них. Обсуждаем статьи и новости.

Модератор: Модераторы Обсерватории

Параметры кодирования видео для мобильных устройств

Сообщение Gideon Vi » Пт авг 08, 2008 10:28 am

Доброго времени суток.

Такой вопрос: после какого энкодера мобильник сможет проживать видео?

Друг попросил сжать несколько мультиков на его Nokia 6131. Ну то, что ресайз под размер дисплея нужно сделать самому - это я понимаю. Сделал ровно под 240x320. Контейнер: mp4. А вот какой энкодер и с какими параметрами использовать?
Попробовал XviD: QP и GMC отключил, B-фрейм один, матрица стандартная - не играет.
Попробовал пошукать в сети: везде только готовые перекодировщики.
Now we that are strong ought to
bear the infirmities of the weak
and not to please ourselves.
Gideon Vi
Капитан-Лейтенант
Капитан-Лейтенант
 
Сообщения: 803
Зарегистрирован: Ср июл 20, 2005 7:10 pm

Re: Параметры кодирования видео для мобильных устройств

Сообщение Виталя » Сб авг 09, 2008 3:09 pm

Он у тебя s40 ili s60?
Per anus ad astra.
Виталя
Капитан 3го ранга
Капитан 3го ранга
 
Сообщения: 1713
Зарегистрирован: Пт июл 23, 2004 4:02 am
Откуда: Россия, Тольятти

Re: Параметры кодирования видео для мобильных устройств

Сообщение Виталя » Сб авг 09, 2008 3:15 pm

Ага, уже сам глянул. s40. Тады не знаю. У меня s60, поставил coreplayer, кушает все, вплоть до хайпрофайла.
Могу порекомендовать: сними видео встроенной камерой и посмотри медиаинфой что внутри файла. Тогда станет ясно как кодить.

Мой например пишет такой поток:
Video
Format : MPEG-4 Visual
Format profile : Simple@L2
Format settings, BVOP : No
Format settings, QPel : No
Format settings, GMC : 0 warppoint
Format settings, Matrix : Default
Duration : 3mn 37s
Bit rate mode : CBR
Bit rate : 381 Kbps
Nominal bit rate : 422 Kbps
Width : 320 pixels
Height : 240 pixels
Display aspect ratio : 4/3
Frame rate mode : VFR
Frame rate : 9.410 fps
Minimum frame rate : 5.000 fps
Maximum frame rate : 15.000 fps
Resolution : 8 bits
Colorimetry : 4:2:0
Scan type : Progressive
Bits/(Pixel*Frame) : 0.528
Stream size : 9.86 MiB

Audio
Format : AAC
Format/Info : Advanced Audio Codec
Format version : Version 4
Format profile : LC
Format settings, SBR : No
Duration : 3mn 36s
Bit rate mode : CBR
Bit rate : 72.0 Kbps
Channel(s) : 1 channel
Channel positions : C
Sampling rate : 48.0 KHz
Resolution : 16 bits
Stream size : 1.86 MiB
Per anus ad astra.
Виталя
Капитан 3го ранга
Капитан 3го ранга
 
Сообщения: 1713
Зарегистрирован: Пт июл 23, 2004 4:02 am
Откуда: Россия, Тольятти

Re: Параметры кодирования видео для мобильных устройств

Сообщение Gideon Vi » Сб авг 09, 2008 5:23 pm

Виталя писал(а):У меня s60, поставил coreplayer, кушает все, вплоть до хайпрофайла.

А на s40 можно этот плеер поставить? Я в сотовых чайник полный
Виталя писал(а):Могу порекомендовать: сними видео встроенной камерой и посмотри медиаинфой что внутри файла. Тогда станет ясно как кодить.

Спасибо, так и сделаю
Now we that are strong ought to
bear the infirmities of the weak
and not to please ourselves.
Gideon Vi
Капитан-Лейтенант
Капитан-Лейтенант
 
Сообщения: 803
Зарегистрирован: Ср июл 20, 2005 7:10 pm

Re: Параметры кодирования видео для мобильных устройств

Сообщение Виталя » Сб авг 09, 2008 6:37 pm

Увы, нет. s60 это смартфоны на базе symbian, а s40 это просто телефоны. Даже если найдешь ява плейер, это будет просто надстройка на штатный проигрыватель.
Кстати, попробуй неровижин поюзать.
Per anus ad astra.
Виталя
Капитан 3го ранга
Капитан 3го ранга
 
Сообщения: 1713
Зарегистрирован: Пт июл 23, 2004 4:02 am
Откуда: Россия, Тольятти

Re: Параметры кодирования видео для мобильных устройств

Сообщение Kanst » Сб авг 09, 2008 10:45 pm

Если МР4, то не НероВижн, а НероРекоде - там есть Mobil профили. Сколько раз кодил для сотовых, поддерживающих .мр4, всегда прокатывало.
Человеку свойственно ошибаться, но окончательно все запутать может только компьютер!
Kanst
Капитан-Лейтенант
Капитан-Лейтенант
 
Сообщения: 1324
Зарегистрирован: Ср фев 04, 2004 10:15 pm
Откуда: 63RUS

Re: Параметры кодирования видео для мобильных устройств

Сообщение Виталя » Вс авг 10, 2008 3:56 am

Я их всегда путал :D
Per anus ad astra.
Виталя
Капитан 3го ранга
Капитан 3го ранга
 
Сообщения: 1713
Зарегистрирован: Пт июл 23, 2004 4:02 am
Откуда: Россия, Тольятти

Re: Параметры кодирования видео для мобильных устройств

Сообщение Виталя » Вс авг 10, 2008 6:39 pm

Итак. Мой 6120 c установленным CorePlayer (последняя версия с allnokia.ru) по беньчмарку выдал 120% на следующем файле:
Video
Format : AVC
Format/Info : Advanced Video Codec
Format profile : High@L1.3
Format settings, CABAC : Yes
Format settings, ReFrames : 6
Codec ID : avc1
Duration : 3mn 28s
Bit rate mode : VBR
Bit rate : 200 Kbps
Maximum bit rate : 1170 Kbps
Width : 320 pixels
Height : 180 pixels
Display aspect ratio : 16/9
Frame rate mode : CFR
Frame rate : 23.976 fps
Colorimetry : 4:2:0
Scan type : Progressive
Bits/(Pixel*Frame) : 0.145
Stream size : 4.97 MiB
Encoded date : UTC 2008-08-09 10:16:05
Tagged date : UTC 2008-08-09 12:32:33

Audio
Format : AAC
Format/Info : Advanced Audio Codec
Format version : Version 4
Format profile : LC
Format settings, SBR : Yes
Format settings, PS : No
Duration : 3mn 28s
Bit rate mode : VBR
Bit rate : 66.15 Kbps
Maximum bit rate : 72.3 Kbps
Channel(s) : 2 channels
Channel positions : L R
Sampling rate : 48.0 KHz
Resolution : 16 bits
Stream size : 1.62 MiB
Encoded date : UTC 2008-08-09 12:32:32
Tagged date : UTC 2008-08-09 12:32:33

Командная строка:
program --pass 2 --bitrate 200 --stats ".stats" --ref 6 --mixed-refs --bframes 2 --b-rdo --bime --weightb --direct auto --filter -2,-2 --subme 7 --trellis 2 --partitions all --8x8dct --qcomp 1.0 --merange 8 --threads auto --thread-input --progress --no-psnr --no-ssim --output "output" "input"
Per anus ad astra.
Виталя
Капитан 3го ранга
Капитан 3го ранга
 
Сообщения: 1713
Зарегистрирован: Пт июл 23, 2004 4:02 am
Откуда: Россия, Тольятти


Вернуться в Софт: описание работы с пакетами, кодеками. Вопросы и ответы

Кто сейчас на конференции

Сейчас этот форум просматривают: нет зарегистрированных пользователей и гости: 5