SOS! Ошибка конвертации DivX. AC EOB marker is absent pos=64

От спец. драйверов до тяжелых пакетов работы со звуком

Модератор: Модераторы Обсерватории

SOS! Ошибка конвертации DivX. AC EOB marker is absent pos=64

Сообщение Gar1999 » Вс май 11, 2008 12:48 pm

Здравствуйте!
Захватываю AVIшку с miniDV кассеты, потом Xilisoft Video Converter-ом кодирую её в DivX. Некоторые файлы кодирует нормально, а некоторые не может закодировать и в лог записывает вот такую ошибку (в конце поста). Подскажите, пожалуйста, откуда растут ноги: то ли из захвата, то ли из конвертера? И можно ли как-то это побороть? Заранее огромное спасибо!

LOG:
Input #0, avi, from 'D:\CAPTURED\clip1.avi':
Duration: 00:08:55.7, bitrate: 30432 kb/s
Stream #0.0: Video: dvvideo, 720x576, 25.00 fps
Stream #0.1: Audio: pcm_s16le, 48000 Hz, stereo, 1536 kb/s
Output #0, avi, to 'D:\CAPTURED\clip1-0.avi':
Stream #0.0: Video: mpeg4, 720x576, 25.00 fps, q=2-31, 1200 kb/s
Stream #0.1: Audio: mp3, 48000 Hz, stereo, 128 kb/s
Stream mapping:
Stream #0.0 -> #0.0
Stream #0.1 -> #0.1
[avi @ 10047378]------------------------------
AC EOB marker is absent pos=64
AC EOB marker is absent pos=65
AC EOB marker is absent pos=64
AC EOB marker is absent pos=64
AC EOB marker is absent pos=67
AC EOB marker is absent pos=70
AC EOB marker is absent pos=64
AC EOB marker is absent pos=64
AC EOB marker is absent pos=71
AC EOB marker is absent pos=64
AC EOB marker is absent pos=64
AC EOB marker is absent pos=66
AC EOB marker is absent pos=64
AC EOB marker is absent pos=73
AC EOB marker is absent pos=64
Gar1999
Юнга
 
Сообщения: 1
Зарегистрирован: Сб май 10, 2008 11:49 pm

Вернуться в Софт: описание работы с пакетами, кодеками. Вопросы и ответы

Кто сейчас на конференции

Сейчас этот форум просматривают: нет зарегистрированных пользователей и гости: 3

cron